Torrent Details For "Hitman Agent 47 (2015) [Hindi Dub] 1080p BDRip Saicord"

Hitman Agent 47 (2015) [Hindi Dub] 1080p BDRip Saicord

To download this torrent, you need a BitTorrent client: Vuze or BTGuard
Download this torrent
Download using Magnet Link

Health:
Seeds: 0
Leechers: 5
Completed:
Last Checked: 22-07-2021 09:09:53

Uploader Reputation points : 1657
External: Torrent



BTGuard - BitTorrent Anonymously

Thanks By

Write a Review for the Uploader:   0   Say Thanks with one good review:
Share on Facebook


Details
Name:Hitman Agent 47 (2015) [Hindi Dub] 1080p BDRip Saicord
Description:


https://www.imdb.com/title/tt2679042






Video
ID                                       : 1
Format                                   : AVC
Format/Info                              : Advanced Video Codec
Format profile                           : [email protected]
Format settings                          : CABAC / 4 Ref Frames
Format settings, CABAC                   : Yes
Format settings, Reference frames        : 4 frames
Codec ID                                 : V_MPEG4/ISO/AVC
Duration                                 : 1 h 37 min
Bit rate                                 : 3 890 kb/s
Width                                    : 1 920 pixels
Height                                   : 804 pixels
Display aspect ratio                     : 2.40:1
Frame rate mode                          : Constant
Frame rate                               : 23.976 (24000/1001) FPS
Color space                              : YUV
Chroma subsampling                       : 4:2:0
Bit depth                                : 8 bits
Scan type                                : Progressive
Bits/(Pixel*Frame)                       : 0.105
Stream size                              : 2.66 GiB (95%)
Language                                 : English
Default                                  : Yes
Forced                                   : No
Color range                              : Limited
Color primaries                          : BT.709
Transfer characteristics                 : BT.709
Matrix coefficients                      : BT.709

Audio
ID                                       : 2
Format                                   : AAC LC
Format/Info                              : Advanced Audio Codec Low Complexity
Codec ID                                 : A_AAC-2
Duration                                 : 1 h 37 min
Bit rate                                 : 192 kb/s
Channel(s)                               : 2 channels
Channel layout                           : L R
Sampling rate                            : 48.0 kHz
Frame rate                               : 46.875 FPS (1024 SPF)
Compression mode                         : Lossy
Stream size                              : 133 MiB (5%)
Language                                 : Hindi
Default                                  : Yes
Forced                                   : No
YouTube Video:   
Category:Movies
Language:Hindi  Hindi
Total Size:2.79 GB
Info Hash:CD127050047D8C5D47CBDFF2756B3D3B0E7DDDB8
Added By:Saicord Verified Uploader
Date Added:22-07-2021 17:09:52
Torrent Status:Torrent Verified