Torrent Details For "Judge.Judy.S25E96.540p.WEB.x264-SunnyZ"

Judge.Judy.S25E96.540p.WEB.x264-SunnyZ

To download this torrent, you need a BitTorrent client: Vuze or BTGuard
Download this torrent
Download using Magnet Link

Health:
Seeds: 18
Leechers: 0
Completed: 171 
Last Checked: 21-07-2021 12:10:52

Uploader Reputation points : 442
External: Torrent



BTGuard - BitTorrent Anonymously

Thanks By

Write a Review for the Uploader:   0   Say Thanks with one good review:
Share on Facebook
TV Info

Judge Judy

This courtroom series stars former family court judge Judith Sheindlin. Each episode finds Judge Judy presiding over real small-claims cases inside a televised courtroom. Judge Judy brings her trademark wit and wisdom to the widely successful half-hour series where justice is dispensed at lightning speed.



Details
Name:Judge.Judy.S25E96.540p.WEB.x264-SunnyZ
Description:
General
Complete name                  :Judge.Judy.S25E96.540p.WEB.x264-SunnyZ.mp4
Format                         : MPEG-4
Format profile                 : Base Media
Codec ID                       : isom
File size                      : 231 MiB
Duration                       : 19mn 52s
Overall bit rate               : 1 623 Kbps
Writing application            : Lavf58.5.100

Video
ID                             : 1
Format                         : AVC
Format/Info                    : Advanced Video Codec
Format profile                 : [email protected]
Format settings, CABAC         : Yes
Format settings, ReFrames      : 5 frames
Codec ID                       : avc1
Codec ID/Info                  : Advanced Video Coding
Duration                       : 19mn 52s
Bit rate                       : 1 490 Kbps
Width                          : 960 pixels
Height                         : 540 pixels
Display aspect ratio           : 16:9
Frame rate mode                : Constant
Frame rate                     : 25.000 fps
Color space                    : YUV
Chroma subsampling             : 4:2:0
Bit depth                      : 8 bits
Scan type                      : Progressive
Bits/(Pixel*Frame)             : 0.115
Stream size                    : 212 MiB (92%)

Audio
ID                             : 2
Format                         : AAC
Format/Info                    : Advanced Audio Codec
Format profile                 : LC
Codec ID                       : 40
Duration                       : 19mn 52s
Bit rate mode                  : Constant
Bit rate                       : 126 Kbps
Channel(s)                     : 2 channels
Channel positions              : Front: L R
Sampling rate                  : 44.1 KHz
Compression mode               : Lossy
Stream size                    : 17.8 MiB (8%)


YouTube Video:
Category:TV
Language:English  English
Total Size:230.70 MB
Info Hash:B2A88CF5A0F2F236F645F842CBCD4E44EA7DD914
Added By:SunnyZ Verified Uploader
Date Added:20-07-2021 17:00:49
Torrent Status:Torrent Verified