Torrent Details For "Malik (2021) [Hindi Dub] 1080p WEB-DLRip Saicord"

Malik (2021) [Hindi Dub] 1080p WEB-DLRip Saicord

To download this torrent, you need a BitTorrent client: Vuze or BTGuard
Download this torrent
Download using Magnet Link

Health:
Seeds: 1
Leechers: 0
Completed:
Last Checked: 22-07-2021 09:26:08

Uploader Reputation points : 1667
External: Torrent



BTGuard - BitTorrent Anonymously

Thanks By

Write a Review for the Uploader:   0   Say Thanks with one good review:
Share on Facebook


Details
Name:Malik (2021) [Hindi Dub] 1080p WEB-DLRip Saicord
Description:


https://www.imdb.com/title/tt10919240






Video
ID                                       : 1
Format                                   : AVC
Format/Info                              : Advanced Video Codec
Format profile                           : [email protected]
Format settings                          : CABAC / 4 Ref Frames
Format settings, CABAC                   : Yes
Format settings, Reference frames        : 4 frames
Codec ID                                 : V_MPEG4/ISO/AVC
Duration                                 : 2 h 42 min
Bit rate                                 : 3 987 kb/s
Width                                    : 1 920 pixels
Height                                   : 816 pixels
Display aspect ratio                     : 2.35:1
Frame rate mode                          : Constant
Frame rate                               : 24.000 FPS
Color space                              : YUV
Chroma subsampling                       : 4:2:0
Bit depth                                : 8 bits
Scan type                                : Progressive
Bits/(Pixel*Frame)                       : 0.106
Stream size                              : 4.53 GiB (95%)
Default                                  : Yes
Forced                                   : No
Color range                              : Limited
Color primaries                          : BT.709
Transfer characteristics                 : BT.709
Matrix coefficients                      : BT.709

Audio
ID                                       : 2
Format                                   : AAC LC
Format/Info                              : Advanced Audio Codec Low Complexity
Codec ID                                 : A_AAC-2
Duration                                 : 2 h 42 min
Bit rate                                 : 192 kb/s
Channel(s)                               : 2 channels
Channel layout                           : L R
Sampling rate                            : 48.0 kHz
Frame rate                               : 46.875 FPS (1024 SPF)
Compression mode                         : Lossy
Stream size                              : 221 MiB (5%)
Language                                 : Hindi
Default                                  : Yes
Forced                                   : No
YouTube Video:   
Category:Movies
Language:Hindi  Hindi
Total Size:4.75 GB
Info Hash:8D6FF11DD09667690AB1C57B2FC8DFFDBEC46F11
Added By:Saicord Verified Uploader
Date Added:22-07-2021 17:26:07
Torrent Status:Torrent Verified