Torrent Details For "Malik (2021) [Hindi Dub] WEB-DLRip Saicord"

Malik (2021) [Hindi Dub] WEB-DLRip Saicord

To download this torrent, you need a BitTorrent client: Vuze or BTGuard
Download this torrent
Download using Magnet Link

Health:
Seeds: 1
Leechers: 3
Completed:
Last Checked: 22-07-2021 09:15:47

Uploader Reputation points : 1667
External: Torrent



BTGuard - BitTorrent Anonymously

Thanks By

Write a Review for the Uploader:   0   Say Thanks with one good review:
Share on Facebook


Details
Name:Malik (2021) [Hindi Dub] WEB-DLRip Saicord
Description:


https://www.imdb.com/title/tt10919240






Video
ID                                       : 1
Format                                   : AVC
Format/Info                              : Advanced Video Codec
Format profile                           : [email protected]
Format settings                          : CABAC / 4 Ref Frames
Format settings, CABAC                   : Yes
Format settings, Reference frames        : 4 frames
Codec ID                                 : V_MPEG4/ISO/AVC
Duration                                 : 2 h 42 min
Bit rate                                 : 798 kb/s
Width                                    : 720 pixels
Height                                   : 308 pixels
Display aspect ratio                     : 2.35:1
Frame rate mode                          : Constant
Frame rate                               : 24.000 FPS
Color space                              : YUV
Chroma subsampling                       : 4:2:0
Bit depth                                : 8 bits
Scan type                                : Progressive
Bits/(Pixel*Frame)                       : 0.150
Stream size                              : 930 MiB (86%)
Default                                  : Yes
Forced                                   : No
Color range                              : Limited
Color primaries                          : BT.601 NTSC
Transfer characteristics                 : BT.601
Matrix coefficients                      : BT.601

Audio
ID                                       : 2
Format                                   : AAC LC
Format/Info                              : Advanced Audio Codec Low Complexity
Codec ID                                 : A_AAC-2
Duration                                 : 2 h 42 min
Bit rate                                 : 125 kb/s
Channel(s)                               : 2 channels
Channel layout                           : L R
Sampling rate                            : 48.0 kHz
Frame rate                               : 46.875 FPS (1024 SPF)
Compression mode                         : Lossy
Stream size                              : 146 MiB (14%)
Language                                 : Hindi
Default                                  : Yes
Forced                                   : No
YouTube Video:   
Category:Movies
Language:Hindi  Hindi
Total Size:1.05 GB
Info Hash:5B35CBDB8207AD59AF46201B9A3C22F430EE7B5B
Added By:Saicord Verified Uploader
Date Added:22-07-2021 17:15:46
Torrent Status:Torrent Verified