Torrent Details For "Meander 2021 HDRip XviD B4ND1T69"

Meander 2021 HDRip XviD B4ND1T69

To download this torrent, you need a BitTorrent client: Vuze or BTGuard
Download this torrent
Download using Magnet Link

Health:
Seeds: 221
Leechers: 10
Completed: 2,806 
Last Checked: 30-07-2021 20:12:05

Uploader Reputation points : 1036
External: Torrent



BTGuard - BitTorrent Anonymously

Thanks By

Write a Review for the Uploader:   0   Say Thanks with one good review:
Share on Facebook


Details
Name:Meander 2021 HDRip XviD B4ND1T69
Description:
Meander.2021.HDRip.XviD.B4ND1T69



Director: Mathieu Turi
Writer: Mathieu Turi
Stars: Gaia Weiss, Peter Franzén, Romane Libert

Plot/Story:
A woman finds herself locked in a series of strange tunnels full of deadly traps.

General
Complete name               : Meander.2021.HDRip.XviD.B4ND1T69.avi
Format                      : AVI
Format/Info                 : Audio Video Interleave
File size                   : 665 MiB
Duration                    : 1 h 30 min
Overall bit rate            : 1 024 kb/s
Subtitles                   : Yes...Hardcoded for non-English parts + file included(HI)

Video
ID                          : 0
Format                      : MPEG-4 Visual
Format profile              : Advanced [email protected]
Format settings, BVOP       : 2
Format settings, QPel       : No
Format settings, GMC        : No warppoints
Format settings, Matrix     : Default (H.263)
Codec ID                    : XVID
Codec ID/Hint               : XviD
Duration                    : 1 h 30 min
Bit rate                    : 883 kb/s
Width                       : 720 pixels
Height                      : 304 pixels
Display aspect ratio        : 2.35:1
Frame rate                  : 23.976 (24000/1001) FPS
Color space                 : YUV
Chroma subsampling          : 4:2:0
Bit depth                   : 8 bits
Scan type                   : Progressive
Compression mode            : Lossy
Bits/(Pixel*Frame)          : 0.168
Stream size                 : 573 MiB (86%)
Writing library             : XviD 64

Audio
ID                          : 1
Format                      : MPEG Audio
Format version              : Version 1
Format profile              : Layer 3
Codec ID                    : 55
Codec ID/Hint               : MP3
Duration                    : 1 h 30 min
Bit rate mode               : Constant
Bit rate                    : 128 kb/s
Channel(s)                  : 2 channels
Sampling rate               : 48.0 kHz
Compression mode            : Lossy
Stream size                 : 83.1 MiB (12%)
Alignment                   : Aligned on interleaves
Interleave, duration        : 24  ms (0.58 video frame)

Screenshots:










Please Seed For As Long As Possible
Or At Least 1:1 Ratio...Thanks
Enjoy Peeps
YouTube Video:   
Category:Movies
Language:English  English
Total Size:664.90 MB
Info Hash:74B36B8C112502CF1A156576EFA0563D340DFF2D
Added By:B4ND1T69 Verified UploaderMovie Pirate
Date Added:19-07-2021 20:05:58
Torrent Status:Torrent Verified