Torrent Details For "My life is Murder s02e01 Call of the Wild h264 Ac3 5 1 Eng Sub Ita By San - MIRCrew"

My life is Murder s02e01 Call of the Wild h264 Ac3 5 1 Eng Sub Ita By San - MIRCrew

To download this torrent, you need a BitTorrent client: Vuze or BTGuard
Download this torrent
Download using Magnet Link

Health:
Seeds: 33
Leechers: 0
Completed: 418 
Last Checked: 22-09-2021 10:22:17

Uploader Reputation points : 4394
External: Torrent



BTGuard - BitTorrent Anonymously

Thanks By

Write a Review for the Uploader:   5   Say Thanks with one good review:
Share on Facebook
TV Info

My Life is Murder

My Life is Murder follows the adventures of fearless private investigator Alexa Crowe, who solves the most baffling crimes as well as coping with the frustrations of everyday life.



Details
Name:My life is Murder s02e01 Call of the Wild h264 Ac3 5 1 Eng Sub Ita By San - MIRCrew
Description:
My life is Murder s02e01 Call of the Wild (2021) SD H264 Ac3 5.1 Eng HardSub Ita By San - MIRCrew





Dimensione file SD da 450/500 mb per tutti gli episodi a seguire uno a settimana
A breve riproporrò la prima stagione nello stesso formato

NB: il sottotitolo italiano da San prodotto è stato adattato in Italiano al linguaggio e modi di dire/Slang, anche se inglese ma differente essendo Neozelandese


La serie, con componenti drama, crime e comedy, vede protagonista Lucy Lawless nei panni di Alexa Crowe, una ex-detective australiana residente a Melbourne che, ormai ritiratasi dopo la morte del marito, cerca di destreggiarsi nella sua nuova vita da donna in pensione anticipata. La sua nuova routine, però, ha breve durata perché sotto insistenza di un suo vecchio collega, Alexa torna in maniera non ufficiale ad aiutare la polizia nelle indagini degli omicidi più disparati.


   La location della serie si sposta dalla bellissima città australiana di Melbourne ad Auckland in Nuova Zelanda (città dove Lucy Lawless ha la sua residenza).
   Confermato il ritorno di Ebony Vagulans che probabilmente diverrà coprotagonista a tutti gli effetti. L’attrice è interprete di Madison Feliciano, l’esuberante aiutante di Alexa con la quale nella prima stagione strinse un rapporto sempre più stretto e complice.

Alexa, nella nuova realtà di Auckland, si ritroverà a risolvere dieci nuovi crimini assistita ancora una volta da Madison. Le due saranno alle prese con personaggi pericolosi che le metteranno alla prova con nuove sfide, nuovi pericoli, nuove frustrazioni e… nuovi flirt

Alexa has bounced the trench and arrived in Auckland. Prepare to have your mind blown. Her companion Madison thumps on the entryway also. At the point when a lady shoots an outsider at point clear reach by the Harbor, it resembles an open and – shut case. However, everything isn’t as it appears.


https://www.youtube.com/watch?v=JTGuZZdo6aM



TV Series: My Life Is Murder Season 2
Network: Acorn TV
Director: Britta Hawkins
Writer: Tim Pye
Main Stars: Ebony Vagulans, Lucy Lawless, Rawiri Jobe
Genres: Comedy, Crime, Drama, Mystery
Country: Australia
Language: English
Release Date: 30 August 2021 (Acorn TV)
Season: 2
Episodes: 10



Ebony Vagulans As Madison Feliciano
Lucy Lawless As Alexa Crowe
Rawiri Jobe As Harry Henare
Joe Naufahu As Reuben Wulf
David de Lautour As James McMasters
Connor Johnston As Rory Byrne
Robyn Malcolm As Tamara Innes
Peter Feeney As Michael Suzmann
George Mason As Craig Ashford
Molly Leishman As Eden
Hannah Marshall As Lydia Suzmann
Courtenay Louise As Soraya
Stan Walker As Grant
Michelle Ang As Kathleen Boyce
Drew Blood As Ivana Martini
Martin Henderson As Will Crowe
Amanduh La As Polly Amorous
Kita Mean As David
Elektra Shock As Felix










General

Complete name                            : My life is Murder s02e01 Call of the Wild  h264 Ac3 5.1 Eng Sub Ita By San - MIRCrew.mkv
Format                                   : Matroska
Format version                           : Version 4 / Version 2
File size                                : 497 MiB
Duration                                 : 43mn 54s
Overall bit rate                         : 1 583 Kbps
Movie name                               : MIRCRew Sub Ita By San
Encoded date                             : UTC 2021-09-12T17:45:48Z
Writing application                      : mkvmerge v26.0.0 ('In The Game') 64-bit
Writing library                          : Lavf55.12.0

Video
ID                                       : 1
Format                                   : AVC
Format/Info                              : Advanced Video Codec
Format profile                           : [email protected]
Format settings, CABAC                   : Yes
Format settings, ReFrames                : 4 frames
Codec ID                                 : V_MPEG4/ISO/AVC
Duration                                 : 43mn 54s
Bit rate                                 : 1 200 Kbps
Width                                    : 720 pixels
Height                                   : 400 pixels
Display aspect ratio                     : 16:9
Frame rate                               : 50.000 fps
Color space                              : YUV
Chroma subsampling                       : 4:2:0
Bit depth                                : 8 bits
Scan type                                : Progressive
Bits/(Pixel*Frame)                       : 0.083
Stream size                              : 367 MiB (74%)
Title                                    : MIRCRew Sub Ita By San
Writing library                          : x264 core 142 r2479 dd79a61
Encoding settings                        : cabac=1 / ref=3 / deblock=1:0:0
Language                                 : English
Default                                  : Yes
Forced                                   : No
DURATION                                 : 00:43:54.440000000


Audio
ID                                       : 2
Format                                   : AC-3
Format/Info                              : Audio Coding 3
Mode extension                           : CM (complete main)
Codec ID                                 : A_AC3
Duration                                 : 43mn 54s
Bit rate mode                            : Constant
Bit rate                                 : 384 Kbps
Channel(s)                               : 6 channels
Channel positions                        : Front: L C R, Side: L R, LFE
Sampling rate                            : 48.0 KHz
Bit depth                                : 16 bits
Compression mode                         : Lossy
Delay relative to video                  : -5ms
Stream size                              : 121 MiB (24%)
Title                                    : MIRCRew Eng Sub Ita By San
Language                                 : English
Default                                  : Yes
Forced                                   : No
DURATION                                 : 00:43:54.400000000



YouTube Video:
Category:TV
Language:English  English
Total Size:497.11 MB
Info Hash:FC79BC7C91DD2F1CEBD98D68D2F6645E1D1EDB90
Added By:MIRCrewRS Verified Uploader
Date Added:14-09-2021 00:08:59
Torrent Status:Torrent Verified