Torrent Details For "Prisoners of the Ghostland 2021 HDRip XviD B4ND1T69"

Prisoners of the Ghostland 2021 HDRip XviD B4ND1T69

To download this torrent, you need a BitTorrent client: Vuze or BTGuard
Download this torrent
Download using Magnet Link

Health:
Seeds: 203
Leechers: 38
Completed: 1,782 
Last Checked: 17-09-2021 11:22:29

Uploader Reputation points : 1182
External: Torrent



BTGuard - BitTorrent Anonymously

Thanks By


Write a Review for the Uploader:   0   Say Thanks with one good review:
Share on Facebook


Details
Name:Prisoners of the Ghostland 2021 HDRip XviD B4ND1T69
Description:
Prisoners.of.the.Ghostland.2021.HDRip.XviD.B4ND1T69



Director: Sion Sono
Writers: Aaron Hendry, Reza Sixo Safai(screenplay)
Stars: Nicolas Cage, Sofia Boutella, Nick Cassavetes

Plot/Story:
A notorious criminal must break an evil curse in order to rescue an abducted girl who has mysteriously disappeared.

General
Complete name               : Prisoners.of.the.Ghostland.2021.HDRip.XviD.B4ND1T69.avi
Format                      : AVI
Format/Info                 : Audio Video Interleave
File size                   : 1.25 GiB
Duration                    : 1 h 42 min
Overall bit rate            : 1 741 kb/s
Subtitles                   : Yes...Hardcoded for non-English parts + file included(HI)

Video
ID                          : 0
Format                      : MPEG-4 Visual
Format profile              : Advanced [email protected]
Format settings, BVOP       : 2
Format settings, QPel       : No
Format settings, GMC        : No warppoints
Format settings, Matrix     : Default (H.263)
Codec ID                    : XVID
Codec ID/Hint               : XviD
Duration                    : 1 h 42 min
Bit rate                    : 1 600 kb/s
Width                       : 720 pixels
Height                      : 304 pixels
Display aspect ratio        : 2.35:1
Frame rate                  : 23.976 (24000/1001) FPS
Color space                 : YUV
Chroma subsampling          : 4:2:0
Bit depth                   : 8 bits
Scan type                   : Progressive
Compression mode            : Lossy
Bits/(Pixel*Frame)          : 0.305
Stream size                 : 1.15 GiB (92%)
Writing library             : XviD 64

Audio
ID                          : 1
Format                      : MPEG Audio
Format version              : Version 1
Format profile              : Layer 3
Codec ID                    : 55
Codec ID/Hint               : MP3
Duration                    : 1 h 42 min
Bit rate mode               : Constant
Bit rate                    : 128 kb/s
Channel(s)                  : 2 channels
Sampling rate               : 48.0 kHz
Compression mode            : Lossy
Stream size                 : 94.1 MiB (7%)
Alignment                   : Aligned on interleaves
Interleave, duration        : 24  ms (0.58 video frame)

Screenshots:










Please Seed For As Long As Possible
Or At Least 1:1 Ratio...Thanks
Enjoy Peeps
YouTube Video:   
Category:Movies
Language:English  English
Total Size:1.25 GB
Info Hash:D726D2AC099DE765F97DCA1686603D43D7ECC8D7
Added By:B4ND1T69 Verified UploaderMovie Pirate
Date Added:15-09-2021 21:18:31
Torrent Status:Torrent Verified