Torrent Details For "Superman and Lois S01E13 WEB-DL XviD B4ND1T69"

Superman and Lois S01E13 WEB-DL XviD B4ND1T69

To download this torrent, you need a BitTorrent client: Vuze or BTGuard
Download this torrent
Download using Magnet Link

Health:
Seeds: 118
Leechers: 17
Completed: 365 
Last Checked: 21-07-2021 17:10:05

Uploader Reputation points : 1036
External: Torrent



BTGuard - BitTorrent Anonymously

Thanks By

Write a Review for the Uploader:   0   Say Thanks with one good review:
Share on Facebook
TV Info

Superman & Lois

After years of facing megalomaniacal supervillains, monsters wreaking havoc on Metropolis, and alien invaders intent on wiping out the human race, The Man of Steel aka Clark Kent and Lois Lane come face to face with one of their greatest challenges ever - dealing with all the stress, pressures and complexities that come with being working parents in today's society.



Details
Name:Superman and Lois S01E13 WEB-DL XviD B4ND1T69
Description:
Superman.and.Lois.S01E13.WEB-DL.XviD.B4ND1T69



Creators: Greg Berlanti, Todd Helbing
Stars: Tyler Hoechlin, Elizabeth Tulloch, Alex Garfin

Plot/Story:
Fail Safe
Superman pays a visit to Morgan Edge; Lois and Chrissy work together on a story; Jonathan finds a welcome distraction during a stressful school day.

General
Complete name               : Superman.and.Lois.S01E13.WEB-DL.XviD.B4ND1T69.avi
Format                      : AVI
Format/Info                 : Audio Video Interleave
File size                   : 302 MiB
Duration                    : 44 min 26 s
Overall bit rate            : 951 kb/s
Subtitles                   : Yes...Included(HI)

Video
ID                          : 0
Format                      : MPEG-4 Visual
Format profile              : Advanced [email protected]
Format settings, BVOP       : 2
Format settings, QPel       : No
Format settings, GMC        : No warppoints
Format settings, Matrix     : Default (H.263)
Codec ID                    : XVID
Codec ID/Hint               : XviD
Duration                    : 44 min 26 s
Bit rate                    : 809 kb/s
Width                       : 640 pixels
Height                      : 288 pixels
Display aspect ratio        : 2.222
Frame rate                  : 23.976 (24000/1001) FPS
Color space                 : YUV
Chroma subsampling          : 4:2:0
Bit depth                   : 8 bits
Scan type                   : Progressive
Compression mode            : Lossy
Bits/(Pixel*Frame)          : 0.183
Stream size                 : 257 MiB (85%)
Writing library             : XviD 64

Audio
ID                          : 1
Format                      : MPEG Audio
Format version              : Version 1
Format profile              : Layer 3
Codec ID                    : 55
Codec ID/Hint               : MP3
Duration                    : 44 min 26 s
Bit rate mode               : Constant
Bit rate                    : 128 kb/s
Channel(s)                  : 2 channels
Sampling rate               : 48.0 kHz
Compression mode            : Lossy
Stream size                 : 40.7 MiB (13%)
Alignment                   : Aligned on interleaves
Interleave, duration        : 24  ms (0.58 video frame)

Screenshots:







Please Seed For As Long As Possible
Or At Least 1:1 Ratio...Thanks
Enjoy Peeps
YouTube Video:   
Category:TV
Language:English  English
Total Size:302.26 MB
Info Hash:FCAF0AA356E48B0AE762EB2C4930ABD5ADDBBB8B
Added By:B4ND1T69 Verified UploaderMovie Pirate
Date Added:21-07-2021 19:20:01
Torrent Status:Torrent Verified